Forum Pakistan
New User? Register | Search | Memberlist | Log in
Forum Pakistan - Pakistani Forums
Pakistani forum to discuss Pakistani Media, Siasat, Politics Talk Shows, Khaber Akhbar, Khel, Cricket, Film, Dramas, Songs, Videos, Shairy, Shayari, Pyar Mohabbat ki Kahani, Tourism, Hotels, Fashion, Property, Naukary Gupshup and more.
Watch TV OnlineLive RadioListen QuranAkhbarFree SMS PakistanResults OnlineUrdu EditorLollywoodLive Cricket Score
Government DepartmentsKSE Live RatesUseful LinksJobsOnline GamesCheck EmailPromote us
GEO News LiveGEO NewsDawn News Live TVExpress News

ForumPakistan.com

Bookmark site!


Unstoppable (2010) CAM LU [1link]


Bookmark and Share
 
Reply to topic    Forum Pakistan - Pakistani Forums Home » Hollywood Movies
Unstoppable (2010) CAM LU [1link]
Author Message
Blackbeard
Senior Member Pakistani
Senior Member Pakistani


Joined: 18 Sep 2010
Posts: 814

Unstoppable (2010) CAM LU [1link]
UNSTOPPABLE 2010 CAM XVID LU



Code:


Complete name : UNSTOPPABLE.2010.CAM.XVID.LU

Format : AVI

Format/Info : Audio Video Interleave

File size : 1.38 GiB

Duration : 1h 32mn

Overall bit rate : 2 136 Kbps

Writing application : Nandub v1.0rc2

Writing library : VirtualDub build 32706/release



Video

ID : 0

Format : MPEG-4 Visual

Format profile : Advanced Simple@L5

Format settings, BVOP : Yes

Format settings, QPel : No

Format settings, GMC : No warppoints

Format settings, Matrix : Default (H.263)

Muxing mode : Packed bitstream

Codec ID : XVID

Codec ID/Hint : XviD

Duration : 1h 32mn

Bit rate : 1 998 Kbps

Width : 640 pixels

Height : 272 pixels

Display aspect ratio : 2.567

Frame rate : 25.000 fps

Color space : YUV

Chroma subsampling : 4:2:0

Bit depth : 8 bits

Scan type : Progressive

Bits/(Pixel*Frame) : 0.459

Stream size : 1.29 GiB (94%)

Writing library : XviD 1.2.1 (UTC 2008-12-04)



Audio

ID : 1

Format : MPEG Audio

Format version : Version 1

Format profile : Layer 3

Mode : Joint stereo

Mode extension : MS Stereo

Codec ID : 55

Codec ID/Hint : MP3

Duration : 1h 32mn

Bit rate mode : Constant

Bit rate : 128 Kbps

Channel(s) : 2 channels

Sampling rate : 44.1 KHz

Stream size : 84.6 MiB (6%)

Alignment : Split accross interleaves

Interleave, duration : 40 ms (1.00 video frame)

Interleave, preload duration : 500 ms






-My upload
-10% CRC added
-100% work
-Quality Upload
-Single Extraction
-Interchangeable Links



DOWNLOAD:

Code:



http://extabit.com/file/2cs83p2zc0yot
 









Code:

http://hotfile.com/dl/82868854/05cd020/thanks.txt.html




Best of the Best !

Tue Nov 16, 2010 7:03 pm View user's profile Send private message
Display posts from previous:    
Reply to topic    Forum Pakistan - Pakistani Forums Home » Hollywood Movies All times are GMT + 5 Hours
Page 1 of 1

 
Gupshup Forum: Urdu ForumIslam ForumPakistan Army ForumAap Ka SheharNaukaryPakistani Visa
Desi Sports and News: Live CricketSports ForumAkhbar OnlinePakistan EventsWorld News Discussion
Entertainment Media: PTV ForumGEO ForumLollywood ForumBollywood OnlineHollywood ForumDesi Radio
Desi Masala Forums: Gupshup Chit ChatComputer GamesMusic ForumDrama ForumsGhazal ForumDesi FashionDesi Food
Official Forums (Government Department): Dak Khana ChatPolice ForumWapda OnlinePTCL ForumUfone ForumRailway ForumSehat Chit ChatTaleem OnlineTax Forum PKZameen ForumAdalat Forum


Pure Pakistani forum to express your views, thoughts with complete freedom. Archives 1 2

Copyright © ForumPakistan.com.pk 2017 All rights reserved.

Contact Us | Advertise | Report Abuse | FP Team | Disclaimer