Forum Pakistan
New User? Register | Search | Memberlist | Log in
Forum Pakistan - Pakistani Forums
Pakistani forum to discuss Pakistani Media, Siasat, Politics Talk Shows, Khaber Akhbar, Khel, Cricket, Film, Dramas, Songs, Videos, Shairy, Shayari, Pyar Mohabbat ki Kahani, Tourism, Hotels, Fashion, Property, Naukary Gupshup and more.
Watch TV OnlineLive RadioListen QuranAkhbarFree SMS PakistanResults OnlineUrdu EditorLollywoodLive Cricket Score
Government DepartmentsKSE Live RatesUseful LinksJobsOnline GamesCheck EmailPromote us
GEO News LiveGEO NewsDawn News Live TVExpress News

The Sickhouse DVDRip Xvid AC3 BIGPER-LKRG

 
Reply to topic    Forum Pakistan - Pakistani Forums Home » Hollywood Movies
The Sickhouse DVDRip Xvid AC3 BIGPER-LKRG
Author Message
DANG3ROUS
Senior Proud Pakistani
Senior Proud Pakistani


Joined: 01 Feb 2011
Posts: 1176

The Sickhouse DVDRip Xvid AC3 BIGPER-LKRG




=======
Download Here
=======

Code:

http://freakshare.com/files/4ds53vwv/TSH.LKRG.avi.html



Or

Code:

http://www.fileserve.com/file/ACrwqnu




Nfo:

Code:

http://www.imdb.com/title/tt0451197/


Video
ID                               : 0
Format                           : MPEG-4 Visual
Format profile                   : Advanced Simple@L5
Format settings, BVOP            : Yes
Format settings, QPel            : No
Format settings, GMC             : No warppoints
Format settings, Matrix          : Default (H.263)
Codec ID                         : XVID
Codec ID/Hint                    : XviD
Duration                         : 1h 30mn
Bit rate                         : 928 Kbps
Width                            : 704 pixels
Height                           : 396 pixels
Display aspect ratio             : 16:9
Frame rate                       : 29.970 fps
Color space                      : YUV
Chroma subsampling               : 4:2:0
Bit depth                        : 8 bits
Scan type                        : Progressive
Compression mode                 : Lossy
Bits/(Pixel*Frame)               : 0.111
Stream size                      : 598 MiB (67%)
Writing library                  : XviD 1.2.1 (UTC 2008-12-04)
 
Audio
ID                               : 1
Format                           : AC-3
Format/Info                      : Audio Coding 3
Mode extension                   : CM (complete main)
Codec ID                         : 2000
Duration                         : 1h 30mn
Bit rate mode                    : Constant
Bit rate                         : 448 Kbps
Channel(s)                       : 6 channels
Channel positions                : Front: L C R, Side: L R, LFE
Sampling rate                    : 48.0 KHz
Bit depth                        : 16 bits
Compression mode                 : Lossy
Video delay                      : 33ms
Stream size                      : 289 MiB (32%)
Alignment                        : Split accross interleaves
Interleave, duration             : 500 ms (14.98 video frames)
Interleave, preload duration     : 500 ms
Language                         : English
 
 
Plot
 
Terror lurks in the old orphanage, beneath a disused London
hospital - a Seventeeth Century malevolence, the Plague Doctor, has
returned to complete his evil masterpiece...



Screens




Please Say Thanks For Original Ripper..!!

______________________________________
Sun Feb 27, 2011 6:23 pm View user's profile Send private message
Display posts from previous:    
Reply to topic    Forum Pakistan - Pakistani Forums Home » Hollywood Movies All times are GMT + 5 Hours
Page 1 of 1

 
Gupshup Forum: Urdu ForumIslam ForumPakistan Army ForumAap Ka SheharNaukaryPakistani Visa
Desi Sports and News: Live CricketSports ForumAkhbar OnlinePakistan EventsWorld News Discussion
Entertainment Media: PTV ForumGEO ForumLollywood ForumBollywood OnlineHollywood ForumDesi Radio
Desi Masala Forums: Gupshup Chit ChatComputer GamesMusic ForumDrama ForumsGhazal ForumDesi FashionDesi Food
Official Forums (Government Department): Dak Khana ChatPolice ForumWapda OnlinePTCL ForumUfone ForumRailway ForumSehat Chit ChatTaleem OnlineTax Forum PKZameen ForumAdalat Forum


Pure Pakistani forum to express your views, thoughts with complete freedom. Archives 1 2

Copyright © ForumPakistan.com.pk 2020 All rights reserved.

Contact Us | Advertise | Report Abuse | FP Team | Disclaimer

Close x