Forum Pakistan
New User? Register | Search | Memberlist | Log in
Forum Pakistan - Pakistani Forums
Pakistani forum to discuss Pakistani Media, Siasat, Politics Talk Shows, Khaber Akhbar, Khel, Cricket, Film, Dramas, Songs, Videos, Shairy, Shayari, Pyar Mohabbat ki Kahani, Tourism, Hotels, Fashion, Property, Naukary Gupshup and more.
Watch TV OnlineLive RadioListen QuranAkhbarFree SMS PakistanResults OnlineUrdu EditorLollywoodLive Cricket Score
Government DepartmentsKSE Live RatesUseful LinksJobsOnline GamesCheck EmailPromote us
GEO News LiveGEO NewsDawn News Live TVExpress News

The Secret In Their Eyes (2009) DVDRip [1link]

 
Reply to topic    Forum Pakistan - Pakistani Forums Home » Hollywood Movies
The Secret In Their Eyes (2009) DVDRip [1link]
Author Message
Blackbeard
Senior Member Pakistani
Senior Member Pakistani


Joined: 18 Sep 2010
Posts: 814

The Secret In Their Eyes (2009) DVDRip [1link]
The Secret In Their Eyes 2009 DVDRip Xvid AC3-TeBuGG



Code:

General
Complete name                    : F:\The Secret In Their Eyes 2010 DVDRip Xvid AC3-TeBuGG.avi
Format                           : AVI
Format/Info                      : Audio Video Interleave
Format profile                   : OpenDML
File size                        : 1.41 GiB
Duration                         : 2h 9mn
Overall bit rate                 : 1 562 Kbps
Writing application              : AVI-Mux GUI 1.17.8.3, Feb 16 201019:42:50

Video
ID                               : 0
Format                           : MPEG-4 Visual
Format profile                   : Advanced Simple@L5
Format settings, BVOP            : Yes
Format settings, QPel            : No
Format settings, GMC             : No warppoints
Format settings, Matrix          : Default (MPEG)
Codec ID                         : XVID
Codec ID/Hint                    : XviD
Duration                         : 2h 9mn
Bit rate                         : 1 109 Kbps
Width                            : 720 pixels
Height                           : 480 pixels
Display aspect ratio             : 16:9
Frame rate                       : 23.976 fps
Standard                         : NTSC
Color space                      : YUV
Chroma subsampling               : 4:2:0
Bit depth                        : 8 bits
Scan type                        : Progressive
Bits/(Pixel*Frame)               : 0.134
Stream size                      : 1.00 GiB (71%)
Writing library                  : XviD 1.2.1 (UTC 2008-12-04)

Audio
ID                               : 1
Format                           : AC-3
Format/Info                      : Audio Coding 3
Mode extension                   : CM (complete main)
Codec ID                         : 2000
Duration                         : 2h 9mn
Bit rate mode                    : Constant
Bit rate                         : 448 Kbps
Channel(s)                       : 6 channels
Channel positions                : Front: L C R, Side: L R, LFE
Sampling rate                    : 48.0 KHz
Bit depth                        : 16 bits
Stream size                      : 414 MiB (29%)
Alignment                        : Aligned on interleaves
Interleave, duration             : 64 ms (1.53 video frames)
Interleave, preload duration     : 1024 ms
Title                            : VTS_01_1 T80 3_2ch 448Kbps DELAY 1001ms

Actors: Ricardo Dar?n, Soledad Villamil
Directors: Juan Jos? Campanella
Rated: R (Restricted)
Studio: Sony Pictures Classics
DVD Release Date: September 21, 2010
Run Time: 129 minutes


http://www.imdb.com/title/tt1305806/






-My upload
-10% CRC added
-100% work
-Quality Upload
-Single Extraction
-Interchangeable Links



DOWNLOAD:
Code:



http://hotfile.com/dl/72998712/80f3d0d/The.Secret.In.Their.Eyes.2010.DVDRip.Xvid.AC3-TeBuGG.daimao.avi.part1.rar.html
http://hotfile.com/dl/73000472/461888a/The.Secret.In.Their.Eyes.2010.DVDRip.Xvid.AC3-TeBuGG.daimao.avi.part2.rar.html
http://hotfile.com/dl/73002247/30702b2/The.Secret.In.Their.Eyes.2010.DVDRip.Xvid.AC3-TeBuGG.daimao.avi.part3.rar.html
http://hotfile.com/dl/73024501/24d867b/The.Secret.In.Their.Eyes.2010.DVDRip.Xvid.AC3-TeBuGG.daimao.avi.part4.rar.html

or

http://www.fileserve.com/file/QWuVYCE/The.Secret.In.Their.Eyes.2010.DVDRip.Xvid.AC3-TeBuGG.daimao.avi.part1.rar
http://www.fileserve.com/file/NSCEZNJ/The.Secret.In.Their.Eyes.2010.DVDRip.Xvid.AC3-TeBuGG.daimao.avi.part3.rar
http://www.fileserve.com/file/vvXc6DX/The.Secret.In.Their.Eyes.2010.DVDRip.Xvid.AC3-TeBuGG.daimao.avi.part2.rar
http://www.fileserve.com/file/zf5fvgV/The.Secret.In.Their.Eyes.2010.DVDRip.Xvid.AC3-TeBuGG.daimao.avi.part4.rar


1link here:

http://www.fileserve.com/file/MPbUCra/The Secret In Their Eyes 2010 DVDRip Xvid AC3-TeBuGG.daimao.avi


All links are Interchangeable













Best of the Best !

Fri Oct 01, 2010 10:04 pm View user's profile Send private message
Display posts from previous:    
Reply to topic    Forum Pakistan - Pakistani Forums Home » Hollywood Movies All times are GMT + 5 Hours
Page 1 of 1

 
Gupshup Forum: Urdu ForumIslam ForumPakistan Army ForumAap Ka SheharNaukaryPakistani Visa
Desi Sports and News: Live CricketSports ForumAkhbar OnlinePakistan EventsWorld News Discussion
Entertainment Media: PTV ForumGEO ForumLollywood ForumBollywood OnlineHollywood ForumDesi Radio
Desi Masala Forums: Gupshup Chit ChatComputer GamesMusic ForumDrama ForumsGhazal ForumDesi FashionDesi Food
Official Forums (Government Department): Dak Khana ChatPolice ForumWapda OnlinePTCL ForumUfone ForumRailway ForumSehat Chit ChatTaleem OnlineTax Forum PKZameen ForumAdalat Forum


Pure Pakistani forum to express your views, thoughts with complete freedom. Archives 1 2

Copyright © ForumPakistan.com.pk 2020 All rights reserved.

Contact Us | Advertise | Report Abuse | FP Team | Disclaimer

Close x