Forum Pakistan
New User? Register | Search | Memberlist | Log in
Forum Pakistan - Pakistani Forums
Pakistani forum to discuss Pakistani Media, Siasat, Politics Talk Shows, Khaber Akhbar, Khel, Cricket, Film, Dramas, Songs, Videos, Shairy, Shayari, Pyar Mohabbat ki Kahani, Tourism, Hotels, Fashion, Property, Naukary Gupshup and more.
Watch TV OnlineLive RadioListen QuranAkhbarFree SMS PakistanResults OnlineUrdu EditorLollywoodLive Cricket Score
Government DepartmentsKSE Live RatesUseful LinksJobsOnline GamesCheck EmailPromote us
GEO News LiveGEO NewsDawn News Live TVExpress News

ForumPakistan.com

Bookmark site!


Rabbit Hole (2010) R5 X264 Feel-Free


Bookmark and Share
 
Reply to topic    Forum Pakistan - Pakistani Forums Home » Hollywood Movies
Rabbit Hole (2010) R5 X264 Feel-Free
Author Message
DANG3ROUS
Senior Proud Pakistani
Senior Proud Pakistani


Joined: 01 Feb 2011
Posts: 1176

Rabbit Hole (2010) R5 X264 Feel-Free




=======
Download Here
=======

Code:

http://www.fileserve.com/file/KbRm6BZ/Rbt.Hl.2010.R5.X264.Feel-Free.mp4



Or

Code:

http://freakshare.com/files/ar9efczb/Rbt.Hl.2010.R5.X264.Feel-Free.mp4.html




Nfo:

Code:

Genre:Drama
Language:English
IMDb:http://www.imdb.com/title/tt0935075/
Source:DVD9 R5/AUDIO:STUDIO AUDIO
Subtitles:Romana


Format : MPEG-4
Format profile : Base Media
Codec ID : isom
File size : 857 MiB
Duration : 1h 27mn
Overall bit rate : 1 373 Kbps
Movie name : Rabbit Hole 2010 R5 X264 Feel-Free


Video
Format settings, CABAC : Yes
Format settings, ReFrames : 4 frames
Codec ID : avc1
Codec ID/Info : Advanced Video Coding
Duration : 1h 27mn
Bit rate mode : Variable
Bit rate : 986 Kbps
Width : 720 pixels
Height : 384 pixels
Display aspect ratio : 1.875
Frame rate mode : Constant
Frame rate : 25.000 fps
Color space : YUV
Chroma subsampling : 4:2:0
Bit depth : 8 bits
Scan type : Progressive
Bits/(Pixel*Frame) : 0.143
Stream size : 613 MiB (72%)
Writing library : x264

Audio
ID : 2
Format : AAC
Format/Info : Advanced Audio Codec
Format version : Version 4
Format profile : LC
Codec ID : 40
Duration : 1h 27mn
Bit rate mode : Variable
Bit rate : 384 Kbps
Channel(s) : 6 channels
Channel positions : Front: L C R, Side: L R, LFE
Sampling rate : 48.0 KHz
Stream size : 240 MiB (28%)


Plot:
Life for a happy couple is turned upside down after their young son dies in an accident. Based on a play by David Lindsay-Abaire



Screens




Please Say Thanks For Original Ripper..!!

______________________________________
Mon Feb 28, 2011 7:55 pm View user's profile Send private message
Display posts from previous:    
Reply to topic    Forum Pakistan - Pakistani Forums Home » Hollywood Movies All times are GMT + 5 Hours
Page 1 of 1

 
Gupshup Forum: Urdu ForumIslam ForumPakistan Army ForumAap Ka SheharNaukaryPakistani Visa
Desi Sports and News: Live CricketSports ForumAkhbar OnlinePakistan EventsWorld News Discussion
Entertainment Media: PTV ForumGEO ForumLollywood ForumBollywood OnlineHollywood ForumDesi Radio
Desi Masala Forums: Gupshup Chit ChatComputer GamesMusic ForumDrama ForumsGhazal ForumDesi FashionDesi Food
Official Forums (Government Department): Dak Khana ChatPolice ForumWapda OnlinePTCL ForumUfone ForumRailway ForumSehat Chit ChatTaleem OnlineTax Forum PKZameen ForumAdalat Forum


Pure Pakistani forum to express your views, thoughts with complete freedom. Archives 1 2

Copyright © ForumPakistan.com.pk 2017 All rights reserved.

Contact Us | Advertise | Report Abuse | FP Team | Disclaimer