Forum Pakistan
New User? Register | Search | Memberlist | Log in
Forum Pakistan - Pakistani Forums
Pakistani forum to discuss Pakistani Media, Siasat, Politics Talk Shows, Khaber Akhbar, Khel, Cricket, Film, Dramas, Songs, Videos, Shairy, Shayari, Pyar Mohabbat ki Kahani, Tourism, Hotels, Fashion, Property, Naukary Gupshup and more.
Watch TV OnlineLive RadioListen QuranAkhbarFree SMS PakistanResults OnlineUrdu EditorLollywoodLive Cricket Score
Government DepartmentsKSE Live RatesUseful LinksJobsOnline GamesCheck EmailPromote us
GEO News LiveGEO NewsDawn News Live TVExpress News

ForumPakistan.com

Bookmark site!


I Am Number Four TS XViD – IMAGiNE


Bookmark and Share
 
Reply to topic    Forum Pakistan - Pakistani Forums Home » Hollywood Movies
I Am Number Four TS XViD – IMAGiNE
Author Message
DANG3ROUS
Senior Proud Pakistani
Senior Proud Pakistani


Joined: 01 Feb 2011
Posts: 1176

I Am Number Four TS XViD – IMAGiNE




=======
Download Here
=======

Code:

http://freakshare.com/files/a0wetpjk/I.Am.Nmbr.Fr.TS.XViD-IMAGiNE.By.DANG3ROUS.avi.html



Or

Code:

http://www.fileserve.com/file/5Th7b3j/I.Am.Nmbr.Fr.TS.XViD-IMAGiNE.By.DANG3ROUS.avi




Nfo:

Code:

********************************************************************************************************************                               
                                   I Am Number Four TS XViD - IMAGiNE
********************************************************************************************************************
 
Ripper ...........: IMAGiNE                                        IMDB Rating.......:7.8/10                           
Video Codec.......: XVID                                         Release Date......:28/02/11
Audio Codec.......:MP3                                           Theatre Date......:18/02/11
Audio Bitrate.....:128                                              Runtime.......:1h 38mn
Subtitles.........:NIL                                                 Language..........:ENGLISH
Resolution...... 720 x 384                                      IMDb URL..........:http://www.imdb.com/title/tt1464540/
 
 
DETAILS:
 
Video
ID                               : 0
Format                           : MPEG-4 Visual
Format profile                   : Advanced Simple@L5
Format settings, BVOP            : Yes
Format settings, QPel            : No
Format settings, GMC             : No warppoints
Format settings, Matrix          : Default (MPEG)
Muxing mode                      : Packed bitstream
Codec ID                         : XVID
Codec ID/Hint                    : XviD
Duration                         : 1h 38mn
Bit rate                         : 865 Kbps
Width                            : 720 pixels
Height                           : 384 pixels
Display aspect ratio             : 1.875
Frame rate                       : 25.000 fps
Resolution                       : 24 bits
Colorimetry                      : 4:2:0
Scan type                        : Progressive
Bits/(Pixel*Frame)               : 0.125
Stream size                      : 611 MiB (86%)
Writing library                  : XviD 61
 
Audio
ID                               : 1
Format                           : MPEG Audio
Format version                   : Version 1
Format profile                   : Layer 3
Codec ID                         : 55
Codec ID/Hint                    : MP3
Duration                         : 1h 38mn
Bit rate mode                    : Constant
Bit rate                         : 128 Kbps
Channel(s)                       : 2 channels
Sampling rate                    : 44.1 KHz
Resolution                       : 16 bits
Stream size                      : 90.3 MiB (13%)
Alignment                        : Split accross interleaves
Interleave, duration             : 40 ms (1.00 video frame)
Interleave, preload duration     : 500 ms



Screens




Please Say Thanks For Original Ripper..!!

______________________________________
Tue Mar 01, 2011 6:57 am View user's profile Send private message
Display posts from previous:    
Reply to topic    Forum Pakistan - Pakistani Forums Home » Hollywood Movies All times are GMT + 5 Hours
Page 1 of 1

 
Gupshup Forum: Urdu ForumIslam ForumPakistan Army ForumAap Ka SheharNaukaryPakistani Visa
Desi Sports and News: Live CricketSports ForumAkhbar OnlinePakistan EventsWorld News Discussion
Entertainment Media: PTV ForumGEO ForumLollywood ForumBollywood OnlineHollywood ForumDesi Radio
Desi Masala Forums: Gupshup Chit ChatComputer GamesMusic ForumDrama ForumsGhazal ForumDesi FashionDesi Food
Official Forums (Government Department): Dak Khana ChatPolice ForumWapda OnlinePTCL ForumUfone ForumRailway ForumSehat Chit ChatTaleem OnlineTax Forum PKZameen ForumAdalat Forum


Pure Pakistani forum to express your views, thoughts with complete freedom. Archives 1 2

Copyright © ForumPakistan.com.pk 2017 All rights reserved.

Contact Us | Advertise | Report Abuse | FP Team | Disclaimer