Forum Pakistan
New User? Register | Search | Memberlist | Log in
Forum Pakistan - Pakistani Forums
Pakistani forum to discuss Pakistani Media, Siasat, Politics Talk Shows, Khaber Akhbar, Khel, Cricket, Film, Dramas, Songs, Videos, Shairy, Shayari, Pyar Mohabbat ki Kahani, Tourism, Hotels, Fashion, Property, Naukary Gupshup and more.
Watch TV OnlineLive RadioListen QuranAkhbarFree SMS PakistanResults OnlineUrdu EditorLollywoodLive Cricket Score
Government DepartmentsKSE Live RatesUseful LinksJobsOnline GamesCheck EmailPromote us
GEO News LiveGEO NewsDawn News Live TVExpress News

Exam (2009) DVDRip [1link]

 
Reply to topic    Forum Pakistan - Pakistani Forums Home » Hollywood Movies
Exam (2009) DVDRip [1link]
Author Message
Blackbeard
Senior Member Pakistani
Senior Member Pakistani


Joined: 18 Sep 2010
Posts: 814

Exam (2009) DVDRip [1link]
Exam 2009 DVDRiP XViD-X



Code:

Genre : Mystery / Thriller

Plot : Eight talented candidates have reached the final stage of selection to join the ranks of a mysterious and powerful corporation. Entering a windowless room, an Invigilator gives them eighty minutes to answer one simple question. He outlines three rules they must obey or be disqualified: don't talk to him or the armed guard by the door, don't spoil their papers and don't leave the room. He starts the clock and leaves. The candidates turn over their question papers, only to find they're completely blank. After the initial confusion has subsided, one frustrated candidate writes 'I believe you should hire me because...,' and is promptly ejected for spoiling. The remaining candidates soon figure out they're permitted to talk to each other, and they agree to cooperate in order to figure out the question: then they can compete to answer it.

Infomation
Video
Codec ID/Hint : XviD
Duration : 1h 41mn
Bit rate : 854 Kbps
Width : 704 pixels
Height : 304 pixels
Display aspect ratio : 2.35:1
Frame rate : 23.976 fps
Color space : YUV
Chroma subsampling : 4:2:0
Bit depth : 8 bits
Scan type : Progressive
Bits/(Pixel*Frame) : 0.166
Stream size : 618 MiB (88%)
Writing library : XviD 57

Audio
ID : 1
Format : MPEG Audio
Format version : Version 1
Format profile : Layer 3
Mode : Joint stereo
Mode extension : MS Stereo
Codec ID : 55
Codec ID/Hint : MP3
Duration : 1h 41mn
Bit rate mode : Variable
Bit rate : 101 Kbps
Nominal bit rate : 112 Kbps
Channel(s) : 2 channels
Sampling rate : 48.0 KHz
Stream size : 73.1 MiB (10%)
Alignment : Aligned on interleaves
Interleave, duration : 24 ms (0.58 video frame)
Interleave, preload duration : 514 ms
Writing library : LAME3.97

http://www.imdb.com/title/tt1258197/







-My upload
-10% CRC added
-100% work
-Quality Upload
-Single Extraction
-Interchangeable Links



DOWNLOAD:

Code:



http://extabit.com/file/2cs83mgrod2t0
 









Code:

http://hotfile.com/dl/89815104/ace048d/thanks.txt.html




Best of the Best !

Thu Dec 16, 2010 5:15 pm View user's profile Send private message
Display posts from previous:    
Reply to topic    Forum Pakistan - Pakistani Forums Home » Hollywood Movies All times are GMT + 5 Hours
Page 1 of 1

 
Gupshup Forum: Urdu ForumIslam ForumPakistan Army ForumAap Ka SheharNaukaryPakistani Visa
Desi Sports and News: Live CricketSports ForumAkhbar OnlinePakistan EventsWorld News Discussion
Entertainment Media: PTV ForumGEO ForumLollywood ForumBollywood OnlineHollywood ForumDesi Radio
Desi Masala Forums: Gupshup Chit ChatComputer GamesMusic ForumDrama ForumsGhazal ForumDesi FashionDesi Food
Official Forums (Government Department): Dak Khana ChatPolice ForumWapda OnlinePTCL ForumUfone ForumRailway ForumSehat Chit ChatTaleem OnlineTax Forum PKZameen ForumAdalat Forum


Pure Pakistani forum to express your views, thoughts with complete freedom. Archives 1 2

Copyright © ForumPakistan.com.pk 2020 All rights reserved.

Contact Us | Advertise | Report Abuse | FP Team | Disclaimer

Close x